#TITLE:Gimme More;
#SUBTITLE:Xenoscar Rouge;
#ARTIST:Britney Spears;
#TITLETRANSLIT:;
#SUBTITLETRANSLIT:;
#ARTISTTRANSLIT:;
#CREDIT:XENOSCAR;
#BANNER:Gimme More Banner.png;
#BACKGROUND:Gimme More BG.png;
#LYRICSPATH:;
#CDTITLE:;
#MUSIC:Gimme More.mp3;
#OFFSET:-1.620;
#SAMPLESTART:71.000;
#SAMPLELENGTH:12.000;
#SELECTABLE:YES;
#BPMS:0.000=113.340,103.500=56.680,104.000=113.340,106.000=226.661,108.000=113.340,110.000=56.680,110.500=113.340,114.000=56.680,114.500=113.340,116.500=226.660,118.500=113.340,119.500=56.680,120.000=113.340,122.000=226.660,124.000=113.340,126.000=56.680,126.500=113.340,130.000=56.680,130.500=113.340,154.500=56.680,155.000=113.340,170.000=56.680,170.500=113.340,185.500=226.661,187.500=113.340,210.500=56.680,211.000=113.340;
#STOPS:102.000=0.260
,111.000=0.260
,127.000=0.260
,132.000=0.280
,133.500=0.260
,136.000=0.520
,138.000=0.280
,139.500=0.260
,142.000=0.520
,144.000=0.280
,145.500=0.260
,148.000=0.520
,150.000=0.280
,151.500=0.260
;
#BGCHANGES:;
// cache tags:
#FIRSTBEAT:0.000;
#LASTBEAT:219.000;
#SONGFILENAME:Songs/nhac/Gimme More Xenoscar Rouge/Gimme More.sm;
#HASMUSIC:1;
#HASBANNER:1;
#MUSICLENGTH:123.541;
// end cache tags

//---------------dance-single - ----------------
#NOTES:
     dance-single:
     :
     Hard:
     9:
     0.660,0.554,0.591,0.202,0.287,473.000,73.000,25.000,0.000,0.000:
1000
0000
0000
1000
0001
0000
0000
0001
0010
0000
0000
0010
0100
0000
0000
0100
,
1000
0000
0001
1000
0000
0001
1000
0000
1100
0000
0001
0000
0101
0000
1000
0000
,
0001
0000
1000
0001
0000
1000
0001
0000
0101
0000
1000
0000
1100
0000
0001
0000
,
0010
0000
0100
0010
0000
0100
0010
0000
1100
0000
1000
0000
1010
0000
0100
0000
,
0010
0000
0100
0010
0000
0100
0010
0000
0101
0000
0001
0000
0011
0000
0010
0000
,
0110
0000
0100
1000
0000
1000
0001
0000
0100
0000
1000
0000
0100
0000
0001
0000
,
1001
0000
1000
0100
0000
0100
0010
0000
1000
0000
0001
0000
0100
0000
0010
0000
,
0011
0000
0001
0010
0000
0010
0100
0000
0001
0000
1000
0000
0010
0000
0100
0000
,
1100
0000
1000
0100
0000
0100
1000
0000
0100
0000
0001
0000
0100
0000
1000
0000
,
1100
2000
0100
3100
0002
0100
0103
0010
,
1010
0000
0000
0000
0102
0000
0000
0000
1000
0000
0000
1000
0000
0000
1003
0000
,
1001
0002
0100
0103
2000
0100
3100
0010
,
0011
0001
1000
1100
0001
0010
0100
1100
,
0001
0101
1000
1100
0002
1000
1003
0001
,
0011
0000
0000
0000
2100
0000
0000
0000
0001
0000
0000
0001
0000
0000
3001
0000
,
1001
2000
0100
3100
0002
0100
0103
0010
,
1010
1000
0001
0101
1000
0010
0100
0101
,
1000
0100
0020
0001
0031
0100
0020
1000
,
1030
0010
0001
0100
1000
1100
0001
0101
,
1000
0000
0001
1000
0001
0000
1000
0000
0001
0000
1000
0001
1000
0000
0010
0000
,
0100
0000
0010
0100
0010
0000
0100
0000
0010
0000
0100
0010
0100
0000
0110
0000
,
0001
0010
0100
2000
0100
3100
0010
0002
,
1000
1003
1000
0010
0100
0101
1000
1100
,
0001
0000
0010
0001
0010
0000
0100
0000
0010
0000
0001
1000
0001
0000
1000
0000
,
0010
0000
0100
0010
0100
0000
0001
0000
1000
0000
0001
0100
0001
0000
1001
0000
,
1000
0100
1000
0100
1100
0001
0100
0120
,
0130
0001
1000
0100
0201
0000
0001
0000
,
0301
0100
1000
0010
2010
3010
0100
0101
,
1000
1100
0001
0011
2001
3100
0010
0001
,
1000
2010
0000
0010
0000
3010
0100
0102
,
1003
0010
0100
0001
0021
0000
0001
0000
,
0031
0010
0100
1000
2100
3001
0010
0110
,
0001
0011
1000
0001
0201
0301
0010
0100
,
1000
0001
0010
0100
1000
0100
0010
0001
,
1000
0010
0100
0001
1000
0010
0100
0001
,
0010
0100
1000
0001
0010
1000
0010
0001
,
0100
1000
0001
0010
1000
0100
0001
0100
,
1000
0001
0010
1000
0001
0100
1000
0001
,
0100
0000
1000
0000
0100
0000
0001
0000
1000
0000
1001
0000
1000
0000
1000
0100
,
1000
0000
0100
0010
0100
0000
0010
0001
0010
0000
0001
1000
0001
0000
1000
0010
,
1000
0000
0010
0100
0010
0000
0100
0001
0100
0000
0001
1000
0001
0000
0001
0100
,
0001
0000
0100
0010
0100
0000
0010
1000
0010
0000
1000
0001
1000
0000
0001
0010
,
0001
0000
0010
0100
0010
0100
0010
0000
1001
0000
0001
0000
0001
0100
0001
0000
,
0100
0010
0100
0000
0010
1000
0010
0000
1000
0001
1000
0000
0001
0010
0001
0000
,
0010
0100
0010
0000
0100
1000
0100
0000
1000
0001
1000
0000
1000
0100
1000
0000
,
0100
0010
0100
0000
0010
0001
0010
0000
0001
1000
0001
0000
0000
0001
0000
0000
,
0010
0100
0010
0010
0010
0010
0020
0000
0000
0000
0000
0000
0030
0000
1001
0000
,
1000
1100
0001
0011
1000
1010
0001
0101
,
1000
1100
0001
0011
1000
1010
0001
1001
,
1000
1100
0001
0011
1000
1010
0001
0101
,
1000
1100
0001
0011
1000
1010
0001
1000
,
0001
1000
0000
0001
1000
0000
1100
0000
0001
0000
0101
0000
0001
0000
1000
0000
,
0001
1000
0000
0001
1000
0100
0010
0010
0010
0000
0110
0000
0001
0000
1000
0001
,
0000
1000
0001
0000
0101
0000
1000
0000
1100
0000
1000
0000
0001
0000
1000
0001
,
0000
1000
0001
0000
1001
0000
0100
0000
2002
0000
0000
0000
3003
0000
0000
0000
;

//---------------dance-single - ----------------
#NOTES:
     dance-single:
     :
     Challenge:
     10:
     0.775,0.731,0.567,0.243,0.676,570.000,70.000,30.000,0.000,0.000:
1000
0000
0001
0010
0001
0000
0010
0100
0010
0000
0100
1000
0100
0000
1000
0001
,
1000
0100
0000
0001
0000
0100
1000
0000
1100
0000
0001
0000
0101
0000
1000
0000
,
0001
0100
0000
1000
0000
0100
0001
0000
0101
0000
1000
0000
1100
0000
0001
0000
,
1000
0010
0000
0001
0000
0010
1000
0000
1010
0000
0001
0000
0011
0000
1000
0000
,
0001
0010
0000
1000
0000
0010
0001
0000
0011
0000
1000
0000
1010
0000
0001
0000
,
1000
0100
0000
0010
0000
0001
0010
0000
0110
0000
0100
0000
1100
0000
1000
0000
,
0001
0010
0000
0100
0000
1000
0100
0000
0110
0000
0010
0000
0011
0000
0001
0000
,
1000
0010
0000
0100
0000
0001
0100
0000
0110
0000
0010
0000
1010
0000
1000
0000
,
0001
0100
0000
0010
0000
1000
0010
0000
0110
0000
0100
0000
0101
0000
0001
0000
,
1100
0000
0001
0100
0001
0000
1000
0100
1000
0000
0001
0000
0021
0000
0031
0000
,
1200
0000
1300
0000
2001
0000
3001
0000
1000
0001
0000
1000
0001
0000
0010
0000
,
0110
0000
0010
0100
0010
0000
0001
1000
0001
0000
0100
0010
0100
0000
1000
0001
,
1000
0100
0001
2000
3001
0010
0100
1000
,
0101
0000
1000
0100
1000
0000
0001
0100
0001
0000
1000
0000
1020
0000
1030
0000
,
0201
0000
0301
0000
1002
0000
1003
0000
0001
1000
0000
0001
1000
0000
0010
0000
,
0110
0000
0010
0100
0010
0000
1000
0001
1000
0000
0100
0010
0100
0000
0001
1000
,
0001
0100
1000
0002
1003
0010
0100
0001
,
1000
0000
0001
0010
0100
0000
1000
0000
0001
0000
1000
0100
0010
0000
0001
0000
,
1000
0000
0001
0100
0010
0000
1000
0000
0010
0000
0001
0100
1000
0000
0001
0000
,
1000
0000
0100
0010
0000
0001
0100
0000
2100
0000
3100
0000
0102
0000
1003
0000
,
0001
0000
0100
0010
0000
1000
0100
0000
0102
0000
0103
0000
2100
0000
3001
0000
,
0001
0000
1000
0010
0100
0000
0001
0000
1000
0000
0001
0100
0010
0000
1000
0000
,
0001
0000
1000
0100
0010
0000
0001
0000
0010
0000
1000
0100
0001
0000
1000
0000
,
0001
0000
0100
0010
0000
1000
0100
0000
0102
0000
0103
0000
2100
0000
3001
0000
,
1000
0000
0100
0010
0100
0000
0100
0000
2100
0000
3100
0000
0102
0000
1003
0000
,
1000
0100
1000
0000
0001
0010
0001
0000
1001
0000
0001
0100
0001
0000
1100
1000
,
1000
0010
1000
0000
0001
0100
0001
0000
1100
0000
0100
0000
1000
0000
0100
0000
,
0001
0100
0001
0000
0100
1000
0100
0000
1100
1000
0001
0010
0001
0000
0010
0100
,
0010
0000
0001
0100
0001
0000
1000
0010
1010
1000
0001
0010
1000
0000
0001
0100
,
1000
0000
1001
0000
0001
0000
1000
0000
0001
0000
1000
0010
0001
0000
1000
0100
,
0001
0010
0100
0000
1000
0100
0010
0000
0101
0000
0100
0000
1000
0000
0100
0000
,
0001
0010
0100
0000
0001
1000
0010
0000
0011
0001
1000
0100
1000
0000
0001
1000
,
0001
0000
0010
0100
0010
0000
1000
0010
0001
1000
0002
0000
0010
0000
0100
0000
,
1003
0001
0010
0100
2000
0100
3010
0002
,
1003
0020
0100
0001
1030
0010
0100
0001
,
0020
0100
1030
0002
0013
2000
0010
0001
,
3100
1000
0001
0010
2000
0100
3001
0200
,
1300
0002
0010
1003
0001
0100
1000
0001
,
0100
0000
1100
0000
0100
0000
0101
0000
1000
0000
1001
0000
1000
0000
1000
0100
,
1000
0000
0100
0010
0100
1000
0010
0001
0010
1000
0001
1000
0001
0000
1000
0010
,
1000
0000
0010
0100
0010
1000
0100
0001
0100
1000
0001
1000
0001
0000
0001
0100
,
0001
0000
0100
0010
0100
0001
0010
1000
0010
0001
1000
0001
1000
0000
0001
0010
,
0001
0000
0010
0100
0010
0100
0010
0100
2100
0001
3001
0000
0001
0100
0001
0000
,
0100
0010
0100
0001
0010
1000
0010
0001
1000
0001
1000
0000
0001
0010
0001
0000
,
0010
0100
0010
0001
0100
1000
0100
0001
1000
0001
1000
0000
1000
0100
1000
0000
,
0100
0010
0100
1000
0010
0001
0010
1000
0001
1000
0001
0000
0000
0001
0000
0000
,
0010
0000
0100
0000
0010
0100
0010
0100
0010
0100
0010
0100
0020
0000
0000
0000
0000
0000
0000
0000
0000
0000
0000
0000
0030
0000
0000
0000
1001
0000
0000
0000
,
1000
0100
1100
0000
0001
0001
0011
0000
1000
0010
1010
0000
0001
0100
0101
0000
,
1000
0100
1100
0000
0001
0010
0011
0000
1000
0010
1010
0000
0001
1000
1001
0000
,
1000
0100
1100
0000
0001
0010
0011
0000
1000
0010
1010
0000
0001
0100
0101
0000
,
1000
0100
1100
0000
0001
0010
0011
0000
1000
0010
1010
0000
1001
0000
1000
0001
,
0000
1000
0000
0001
1000
0000
1100
0000
0001
0000
0101
0000
0001
0000
1000
0001
,
0000
0000
1000
0000
0000
0000
0001
0000
1000
0000
0100
0000
0010
0001
0010
0001
0010
0000
0000
0000
0110
0000
0000
0000
0001
0000
1000
0000
0000
0000
0001
0000
,
0000
1000
0001
0000
0101
0000
1000
0000
1100
0000
1000
0000
0001
1000
0000
0001
,
0000
1000
0001
0000
1001
0000
0100
0000
2002
0000
0000
0000
3003
0000
0000
0000
;

//---------------dance-single - ----------------
#NOTES:
     dance-single:
     :
     Medium:
     7:
     0.496,0.465,0.502,0.089,0.166,356.000,62.000,11.000,0.000,0.000:
1000
0001
0010
0100
,
1000
0000
0000
1000
0000
0000
1000
0000
1100
0000
0001
0000
0101
0000
0000
0000
,
0001
0000
0000
0001
0000
0000
0001
0000
0101
0000
1000
0000
1100
0000
0000
0000
,
0010
0000
0000
0010
0000
0000
0010
0000
1100
0000
1000
0000
1010
0000
0000
0000
,
0010
0000
0000
0010
0000
0000
0010
0000
0101
0000
0001
0000
0011
0000
0000
0000
,
0110
0000
0000
1000
0000
0000
0001
0000
0100
0000
1000
0000
0100
0000
0001
0000
,
1001
0000
0000
0100
0000
0000
0010
0000
1000
0000
0001
0000
0100
0000
0010
0000
,
0011
0000
0000
0010
0000
0000
0100
0000
0001
0000
1000
0000
0010
0000
0100
0000
,
1100
0000
0000
0100
0000
0000
1000
0000
0100
0000
0001
0000
0100
0000
1000
0000
,
1100
0000
1000
1000
0001
0001
0100
0100
,
1010
0000
0000
0000
0102
0000
0000
0000
1000
0000
0000
1000
0000
0000
1003
0000
,
1001
0000
0001
0001
1000
1000
0100
0100
,
0011
0000
1000
1100
0000
0010
0100
1100
,
0000
0101
0000
1100
0001
1000
0001
1000
,
0011
0000
0000
0000
2100
0000
0000
0000
0001
0000
0000
0001
0000
0000
3001
0000
,
1001
0000
1000
1000
0001
0001
0010
0010
,
1010
0000
0001
0101
0000
0010
0100
0101
,
1000
0000
0010
0001
0000
0100
0010
1000
,
0000
0010
0001
0100
1000
1100
0001
0101
,
1000
0000
0000
1000
0000
0000
1000
0000
0001
0000
1000
0000
1000
0000
0010
0000
,
0100
0010
0010
0100
0010
0100
0100
0110
,
0001
0000
0100
1000
0000
0100
0010
0001
,
0000
1000
1000
1000
0001
0101
1000
1100
,
0001
0010
0010
0100
0010
0001
0001
1000
,
0010
0100
0100
0001
1000
0001
0001
1001
,
1000
0001
1000
0100
0000
0001
0100
0000
,
0100
0001
1000
0100
0202
0000
0000
0003
,
0301
0100
1000
0010
0000
0010
0100
0000
,
1000
0100
0001
0010
0000
0100
0010
0001
,
1000
2020
0000
0000
0030
3010
0100
0000
,
1000
0010
0100
0001
0022
0000
0000
0003
,
0031
0010
0100
1000
0000
0001
0010
0000
,
0001
0011
1000
0001
0000
0001
0010
0100
,
1000
0000
0010
0100
0000
0100
0010
0001
,
1000
0010
0100
0001
1000
0000
0100
0001
,
0000
0100
1000
0001
0010
1000
0010
0001
,
0100
0000
0001
0010
0000
0100
0001
0100
,
1000
0001
0010
1000
0001
0000
1000
0001
,
0000
0000
1000
0000
0100
0000
0001
0000
1000
0000
1001
0000
1000
0000
0000
1000
,
0100
0000
0000
0100
0001
0000
0000
0001
0100
0000
0000
0100
1000
0000
0000
1000
,
0010
0000
0000
0010
0001
0000
0000
0001
0010
0000
0000
0010
1000
0000
0000
1000
,
0001
0000
0000
0001
0010
0000
0000
0010
0100
0000
0000
0100
1000
0000
0000
1000
,
0001
0000
0010
0000
0010
0000
0010
0000
1001
0000
0001
0000
0000
0001
0100
0000
,
0000
0100
1000
0000
0000
1000
0100
0000
0000
0100
0001
0000
0000
0001
0010
0000
,
0000
0010
1000
0000
0000
1000
0010
0000
0000
0010
0001
0000
0000
0001
1000
0000
,
0000
1000
0010
0000
0000
0010
0100
0000
0000
0100
0001
0000
0000
0001
1000
0000
,
0010
0010
0010
0020
0000
0000
0030
1001
,
1000
1100
0000
0011
1000
1010
0000
0101
,
1000
1100
0000
0011
1000
1010
0000
1001
,
1000
1100
0000
0011
1000
1010
0000
0101
,
1000
1100
0000
0011
1000
1010
0000
1000
,
0000
1000
0000
0000
1000
0000
1100
0000
0001
0000
0101
0000
0000
0000
1000
0000
,
0000
1000
0000
0000
1000
0000
0010
0000
0010
0000
0110
0000
0001
0000
0000
0001
,
0000
0000
0001
0000
0101
0000
1000
0000
1100
0000
0000
0000
0001
0000
0000
0001
,
0000
0001
1001
0100
2002
0000
3003
0000
;

//---------------dance-single - ----------------
#NOTES:
     dance-single:
     :
     Easy:
     4:
     0.290,0.355,0.380,0.040,0.000,199.000,47.000,5.000,0.000,0.000:
0000
0000
0000
0000
,
1000
0100
1100
0101
,
0001
0100
0101
1100
,
0010
0001
1100
1010
,
0010
1000
0101
0011
,
0110
0100
0100
0100
,
1001
1000
1000
0100
,
0011
0001
0001
0010
,
1100
0100
0100
0100
,
1100
1000
0001
0100
,
1010
0000
0102
0000
1000
0000
1000
0003
,
1001
0001
1000
0100
,
0011
1000
0000
0100
,
0001
1000
0001
0001
,
0011
0000
2100
0000
0001
0000
0001
3000
,
1001
1000
0001
0010
,
1010
0001
0000
0100
,
1000
0010
0000
0010
,
0000
0001
1000
0001
,
1000
1000
0001
1000
,
0100
0010
0010
0100
,
0001
0100
0000
0010
,
0000
1000
0001
1000
,
0001
0010
0010
0001
,
0010
0100
1000
1001
,
1000
0000
1000
0000
0000
0001
0000
0000
,
0100
1000
0100
0000
,
0001
0000
1000
0000
0000
0010
0000
0000
,
1000
0000
0001
0000
0000
0100
0000
0001
,
0000
1000
0000
0000
0000
0010
0000
0000
,
1000
0100
0010
0000
,
0001
0000
0100
0000
0000
0001
0000
0000
,
0011
0000
0001
0000
0000
0001
0000
0100
,
0000
0000
0010
0000
0000
0100
0000
0001
,
0000
0010
0000
0001
0000
0000
0100
0000
,
0000
0100
0000
0001
0000
1000
0000
0001
,
0000
0000
0001
0000
0000
0100
0000
0100
,
0000
0001
0000
1000
0000
0000
1000
0000
,
0000
1000
0000
0001
0000
1001
1000
0000
,
0100
0001
0100
1000
,
0010
0001
0010
1000
,
0001
0010
0100
1000
,
0001
0000
0010
0000
1001
0001
0000
0100
,
0000
1000
0000
0100
0000
0001
0000
0010
,
0000
1000
0000
0010
0000
0001
0000
1000
,
0000
0010
0000
0100
0000
0001
0000
1000
,
0000
0010
0010
0020
0000
0000
0030
1001
,
0000
1100
0000
0011
0000
1010
0000
0101
,
0000
1100
0000
0011
0000
1010
0000
1001
,
0000
1100
0000
0011
0000
1010
0000
0101
,
0000
1100
0000
0011
0000
1010
0000
1000
,
0000
1000
0000
1100
0000
0101
0000
1000
,
0000
1000
0000
0010
0000
0110
0001
0000
,
0001
0101
1100
0001
,
0001
0100
2002
3003
;

//---------------dance-single - ----------------
#NOTES:
     dance-single:
     :
     Beginner:
     2:
     0.183,0.199,0.243,0.024,0.000,125.000,30.000,3.000,0.000,0.000:
0000
0000
0000
0000
,
1000
0000
1100
0000
,
0001
0000
0101
0000
,
0010
0000
1100
0000
,
0010
0000
0101
0000
,
0110
0000
0100
0000
,
1001
0000
1000
0000
,
0011
0000
0001
0000
,
1100
0000
0100
0000
,
1100
0000
0001
0000
,
1010
0000
1000
1000
,
1001
0000
1000
0000
,
0011
1000
0000
0100
,
0001
0000
0001
0000
,
0011
0000
0001
0001
,
1001
0000
0001
0000
,
1010
0001
0000
0100
,
1000
0010
0000
0010
,
0000
0001
1000
0001
,
1000
1000
0001
1000
,
0100
0010
0010
0100
,
0001
0100
0000
0010
,
0000
1000
0001
1000
,
0001
0010
0010
0001
,
0010
0100
1000
1001
,
1000
0000
0000
0000
0000
0001
0000
0000
,
0100
0000
0000
0000
,
0001
0000
0000
0000
0000
0010
0000
0000
,
1000
0000
0000
0000
0000
0100
0000
0000
,
0000
0000
0000
0000
0000
0010
0000
0000
,
1000
0000
0000
0000
,
0001
0000
0000
0000
0000
0001
0000
0000
,
0011
0000
0000
0000
0000
0001
0000
0000
,
0000
0000
0010
0000
0000
0100
0000
0000
,
0000
0010
0000
0000
0000
0000
0100
0000
,
0000
0100
0000
0000
0000
1000
0000
0000
,
0000
0000
0001
0000
0000
0100
0000
0000
,
0000
0001
0000
0000
0000
0000
1000
0000
,
0000
1000
0000
0000
0000
0000
1000
0000
,
0000
0001
0000
1000
,
0000
0001
0000
1000
,
0000
0001
0000
0100
,
0000
0000
0001
0000
1001
0001
0000
0000
,
0000
1000
0000
0000
0000
0001
0000
0000
,
0000
1000
0000
0000
0000
0001
0000
0000
,
0000
0010
0000
0000
0000
0001
0000
1000
,
0000
0010
0000
0020
0000
0000
0030
1001
,
0000
0000
0000
0011
0000
0000
0000
0101
,
0000
0000
0000
0011
0000
0000
0000
1001
,
0000
0000
0000
0011
0000
0000
0000
0101
,
0000
0000
0000
0011
0000
0000
0000
1000
,
0000
0000
0000
1100
0000
0000
0000
1000
,
0000
0000
0000
0010
0000
0110
0001
0000
,
0000
0101
0000
0001
,
0000
0100
2002
3003
;
